In Living Color | Inside Amy Schumer | Intelligence
Login / Register
Votes
Good: 0
Bad: 0
GoodBad
12
Seeders
0
Leechers

Added: 2015-09-27

Size: 63.54 MB

Health: 100%

Hash (Base16): 81AF2D718271319100038AA8BC3455E21869118B

Hash (Base32): QGXS24MCOEYZCAADRKULYNCV4IMGSEML

DownloadBookmark
^
PLAN B - FANATICA SENSUAL

 
http://gifyu.com/images/PlanB.png
 
http://thepiratebay.mn/user/MeRaDil


MEDIA INFO
General
Plan B - Fanatica Sensual
Format                                   : MPEG-4
Format profile                           : Base Media
Codec ID                                 : isom
File size                                : 63.5 MiB
Duration                                 : 4mn 0s
Overall bit rate                         : 2 212 Kbps
MusicVid name                            : Fanatica Sensual
Performer                                : Plan B
Genre                                    : Reggaeton
ContentType                              : Music Video
Recorded date                            : 2015
Rating                                   : ***
Make                                     : MeRaDil
Release date                             : Puerto Rico - february 3 - 2015

Video
ID                                       : 1
Format                                   : AVC
Format/Info                              : Advanced Video Codec
Format profile                           : 
Format settings, CABAC                   : Yes
Format settings, ReFrames                : 3 frames
Codec ID                                 : avc1
Codec ID/Info                            : Advanced Video Coding
Duration                                 : 4mn 0s
Bit rate                                 : 1 950 Kbps
Width                                    : 1 920 pixels
Height                                   : 1 080 pixels
Display aspect ratio                     : 16:9
Frame rate mode                          : Variable
Frame rate                               : 23.976 fps
Minimum frame rate                       : 23.974 fps
Maximum frame rate                       : 23.981 fps
Color space                              : YUV
Chroma subsampling                       : 4:2:0
Bit depth                                : 8 bits
Scan type                                : Progressive
Bits/(Pixel*Frame)                       : 0.039
Stream size                              : 56.0 MiB (88%)

Audio
ID                                       : 2
Format                                   : AAC
Format/Info                              : Advanced Audio Codec
Format profile                           : LC
Codec ID                                 : 40
Duration                                 : 4mn 0s
Bit rate mode                            : Constant
Bit rate                                 : 256 Kbps
Channel(s)                               : 2 channels
Channel positions                        : Front: L R
Sampling rate                            : 44.1 KHz
Compression mode                         : Lossy
Stream size                              : 7.35 MiB (12%)

Plan B * Reggaeton/Latin * Promo
TRACKERSEEDLEECHDOWNLOADED
udp://tracker.coppersurfer.tk:6969/announce120100301
udp://9.rarbg.com:2710/announce
udp://open.demonii.com:1337/announce
udp://tracker.publicbt.com:80/announce
udp://tracker.openbittorrent.com:80/announce
http://tracker.nwps.ws:6969/announce
http://tracker.tfile.me/announce
http://bigfoot1942.sektori.org:6969/announce
http://tracker.trackerfix.com/announce
udp://exodus.desync.com:6969/announce
http://tracker.publicbt.com/announce
udp://tracker.leechers-paradise.org:6969/announce
udp://tracker.pomf.se:80/announce
udp://9.rarbg.to:2710/announce
http://announce.torrentsmd.com:6969/announce
http://explodie.org:6969/announce
http://torrent.gresille.org/announce
udp://tracker.token.ro:80/announce
udp://glotorrents.com:6969/announce
udp://glotorrents.pw:6969/announce
udp://tracker4.piratux.com:6969/announce
http://tracker3.infohash.org/announce
udp://opentrackr.org:1337/announce
FILESIZE
Plan B - Fanatica Sensual.mp463.54 MB

Login

Account deleting

Are you sure you want to delete your account?

WARNING: This action cannot be undone!!!