OnlySilkAndSatin 17 04 24 Maria Smith XXX XviD-iPT Team[tk] avi | Clip_No_95__Straightjacket___Insex avi | reloj Ghost in the Shell (2017) Full Movie Online Streaming sin descargar.
Login / Register

Harry Potter 1 - L'école des Sorciers

Category: Video
Type: Other
External Links: IMDB
Votes
Good: 0
Bad: 0
GoodBad
395
Seeders
4
Leechers

Added: 2010-07-04

Size: 699 MB

Health: 100%

Hash (Base16): 97FD963FD2F194DDC3768E38444F81750B8B50D5

Hash (Base32): S76ZMP6S6GKN3Q3WRY4EIT4BOUFYWUGV

DownloadBookmark
^
Harry Potter 1 L'école torrent screenshot97FD963FD2F194DDC3768E38444F81750B8B50D5Harry Potter 1 L'école  torrent screenshot97fd963fd2f194ddc3768e38444f81750b8b50d5torrent Harry Potter 1 L'école

Sample info: Duration: 02:26:10.08, start: 0.000000, bitrate: 668 kb/s Stream #0.0: Video: mpeg4, yuv420p, 720x304 [PAR 1:1 DAR 45:19], 25.00 tb(r) Stream #0.1: Audio: mp3, 48000 Hz, stereo, 96 kb/s

TRACKERSEEDLEECHDOWNLOADED
udp://tracker.coppersurfer.tk:6969/announce454571693
http://mgtracker.org:2710/announce339211564
udp://mgtracker.org:2710/announce339211564
udp://tracker.publicbt.com:80/announce
udp://tracker.openbittorrent.com:80/announce
http://tracker.istole.it/announce
http://tracker.tfile.me/announce
http://explodie.org:6969/announce
FILESIZE
Harry Potter 1 - L'école des Sorciers.avi699 MB

Login

Account deleting

Are you sure you want to delete your account?

WARNING: This action cannot be undone!!!