Madari 2016 Watch Online Free MADARI 2016Full Movie Watch On Dailymotion,MADARI 2016Full Movie Watch youtube MADARI 2016, Online Watch Full Movie MADARI 2016Free Download Full Movie Watch Online Mp4 HDRip BR 720p 1080P MADARI 2016Movie Online, Link-----> player 1 - - - > DVDRip | HD 720P > Play Link-----> player 2 - - - > DVDRip | HD 720P > Play Link-----> player 3 - ... | All Things Must Pass: The Rise and Fall of Tower Records (2015) online | Troublemakers: T.. (2016)
Login / Register

Fallen.2016.DVDRip.720p.x264-HEFF.mp4

Category: Video
Type: Other
Language: English
External Links: IMDB
Votes
Good: 0
Bad: 0
GoodBad
238
Seeders
204
Leechers

Added: 2017-03-07

Size: 1.8 GB

Health: 100%

Hash (Base16): FD8B9EF42135FD68F55DFF3E453DB8CD4B1DF06C

Hash (Base32): 7WFZ55BBGX6WR5K5747EKPNYZVFR34DM

DownloadBookmark
^

General
Complete name : Fallen.2016.DVDRip.720p.x264-HEFF.mp4
Format : MPEG-4
Format profile : Base Media
Codec ID : isom (isom/iso2/avc1/mp41)
File size : 1.81 GiB
Duration : 1 h 32 min
Overall bit rate : 2 807 kb/s

Video
ID : 1
Format : AVC
Format/Info : Advanced Video Codec
Format profile : [email protected]
Format settings, CABAC : Yes
Format settings, ReFrames : 4 frames
Codec ID : avc1
Codec ID/Info : Advanced Video Coding
Duration : 1 h 32 min
Bit rate : 2 700 kb/s
Width : 1 280 pixels
Height : 568 pixels
Display aspect ratio : 2.25:1
Frame rate mode : Constant
Frame rate : 23.976 (23976/1000) FPS
Chroma subsampling : 4:2:0
Bit depth : 8 bits
Scan type : Progressive
Bits/(Pixel*Frame) : 0.155
Stream size : 1.72 GiB (95%)
Writing library : x264 core 148

Audio
ID : 2
Format : AAC
Format/Info : Advanced Audio Codec
Format profile : LC
Codec ID : 40
Duration : 1 h 31 min
Duration_LastFrame : -11 ms
Bit rate mode : Constant
Bit rate : 129 kb/s
Channel(s) : 2 channels
Channel(s)_Original : 6 channels
Channel positions : Front: L C R, Side: L R, LFE
Sampling rate : 48.0 kHz
Frame rate : 46.875 FPS (1024 spf)
Compression mode : Lossy
Stream size : 84.2 MiB (5%)

TRACKERSEEDLEECHDOWNLOADED
udp://tracker.coppersurfer.tk:6969/announce
udp://tracker.zer0day.to:1337/announce
udp://mgtracker.org:2710/announce
udp://9.rarbg.me:2710/announce
udp://open.demonii.com:1337/announce
udp://tracker.openbittorrent.com:80/announce
http://tracker.tfile.me/announce
http://bigfoot1942.sektori.org:6969/announce
http://tracker.trackerfix.com/announce
udp://tracker.leechers-paradise.org:6969/announce
udp://tracker.pomf.se:80/announce
udp://p4p.arenabg.ch:1337/announce
udp://p4p.arenabg.com:1337/announce
udp://9.rarbg.to:2710/announce
http://explodie.org:6969/announce
udp://explodie.org:6969/announce
udp://ipv4.tracker.harry.lu:80/announce
udp://tracker.ilibr.org:6969/announce
udp://tracker.ilibr.org:80/announce
udp://eddie4.nl:6969/announce
udp://glotorrents.pw:6969/announce
udp://tracker4.piratux.com:6969/announce
udp://tracker.blackunicorn.xyz:6969/announce
udp://torrent.gresille.org:80/announce
udp://tracker.opentrackr.org:1337/announce
udp://tracker.internetwarriors.net:1337/announce
udp://zer0day.ch:1337/announce
udp://public.popcorn-tracker.org:6969/announce
FILESIZE
Fallen.2016.DVDRip.720p.x264-HEFF.mp41.81 GB
hefftorrents.com.jpg83.34 KB

Login

Account deleting

Are you sure you want to delete your account?

WARNING: This action cannot be undone!!!